Trailer for the book:

Coming soon…

Book Trailer — Video Transcript

  • Covertise Presents
  • a children’s story by Dr. Victoria Dillingham DDS
  • The American Tooth Fairy
  • a fun way to approach the loss of that baby tooth
  • prepares every child for the first loose tooth
  • makes the experience of dental hygiene fun
  • Claim Your Copy Today

Video Meta Information

General

Complete name: ??.mp4
Format: MPEG-4
Format profile: Base Media / Version 2
Codec ID: mp42
File size: 47.0 MiB
Duration: 1mn 12s
Overall bit rate mode: Variable
Overall bit rate: 5 457 Kbps
Encoded date: ??
Tagged date: ??
©TIM: 00;00;00;00
©TSC: 30000
©TSZ: 1001

Video

ID: 1
Format: AVC
Format/Info: Advanced Video Codec
Format profile: Main@L3.2
Format settings, CABAC: Yes
Format settings, ReFrames: 3 frames
Codec ID: avc1
Codec ID/Info: Advanced Video Coding
Duration: 1mn 12s
Bit rate: 5 202 Kbps
Width: 1 280 pixels
Height: 720 pixels
Display aspect ratio: 16:9
Frame rate mode: Constant
Frame rate: 29.970 fps
Standard: NTSC
Color space: YUV
Chroma subsampling: 4:2:0
Bit depth: 8 bits
Scan type: Progressive
Bits/(Pixel*Frame): 0.188
Stream size: 44.8 MiB (95%)
Language: English
Encoded date: ??
Tagged date: ??

Audio

ID: 2
Format: AAC
Format/Info: Advanced Audio Codec
Format profile: LC
Codec ID: 40
Duration: 1mn 12s
Bit rate mode: Variable
Bit rate: 192 Kbps
Maximum bit rate: 255 Kbps
Channel(s): 2 channels
Channel positions: Front: L R
Sampling rate: 48.0 KHz
Compression mode: Lossy
Stream size: 1.63 MiB (3%)
Language: English
Encoded date: ??
Tagged date: ??
Material_Duration: 72320
Material_StreamSize: 1711950

The American Tooth Fairy

“a children’s story”

by Dr. Victoria Dillingham DDS

Paperback: 42 pages

Publisher: Covertise (February ??, 2013)

ISBN-10: 0984719210

ISBN-13: 978-0984719211

Library of Congress Control Number (LCCN): 2013931283

BISAC Category: JUV012030 (Juvenile Fiction / Fairy Tales & Folklore / General)

Language: English

Product Dimensions: 8.5 x 5.5 x ?? inches

Shipping Weight: ?? ounces

  • Facebook
  • TwitThis